» » El Gran Pastelero: Bake Off España (2019)[T.1][HDTV 720p][Castellano][6/-][VS]
Información de la Publicación
  • Visitas: 702
  • Autor: parrix
  • Fecha: 28-03-2019, 21:20
28-03-2019, 21:20

El Gran Pastelero: Bake Off España (2019)[T.1][HDTV 720p][Castellano][6/-][VS]

Categoria: Programas de TV



El Gran Pastelero: Bake Off España (2019)[T.1][HDTV 720p][Castellano][6/-][VS]

El Gran Pastelero: Bake Off España (2019)[T.1][HDTV 720p][Castellano][6/-][VS]


El Gran Pastelero: Bake Off España (2019)[T.1][HDTV 720p][Castellano][6/-][VS]



Género Talent Show
Presentador Jesús Vázquez
País de origen España
Idioma(s) Español
Duración 100 min
Productora Mediaset España





Calidad: HDTV 720p
Formato: MKV
Resolución: 1280x720p
Video: AVC
Audio: Castellano AAC 2.0
Tamaño: 1,92 GB



MediaInfo:

[SPOILER]



General
Complete name               : C:\Users\User\Desktop\El.Gran.Pastelero.Bake.Off.m72O.1x01.mkv
Format                      : MPEG-4
Format profile              : Base Media
Codec ID                    : isom (isom/iso2/avc1/mp41)
File size                   : 1.92 GiB
Duration                    : 1 h 40 min
Overall bit rate mode       : Constant
Overall bit rate            : 2 730 kb/s
Writing application         : Lavf58.20.100
FileExtension_Invalid       : mov mp4 m4v m4a m4b m4p 3ga 3gpa 3gpp 3gp 3gpp2 3g2 k3g jpm jpx mqv ismv isma ismt f4a f4b f4v

Video
ID                          : 1
Format                      : AVC
Format/Info                 : Advanced Video Codec
Format profile              : Baseline@L3.1
Format settings             : 1 Ref Frames
Format settings, CABAC      : No
Format settings, RefFrames  : 1 frame
Codec ID                    : avc1
Codec ID/Info               : Advanced Video Coding
Duration                    : 1 h 40 min
Bit rate mode               : Constant
Bit rate                    : 2 600 kb/s
Width                       : 1 280 pixels
Height                      : 720 pixels
Display aspect ratio        : 16:9
Frame rate mode             : Constant
Frame rate                  : 25.000 FPS
Standard                    : PAL
Color space                 : YUV
Chroma subsampling          : 4:2:0
Bit depth                   : 8 bits
Scan type                   : Progressive
Bits/(Pixel*Frame)          : 0.113
Stream size                 : 1.83 GiB (95%)
Color range                 : Limited
Color primaries             : BT.601 PAL
Transfer characteristics    : BT.601
Matrix coefficients         : BT.470 System B, BT.470 System G

Audio
ID                          : 2
Format                      : AAC
Format/Info                 : Advanced Audio Codec
Format profile              : LC
Codec ID                    : mp4a-40-2
Duration                    : 1 h 40 min
Bit rate mode               : Constant
Bit rate                    : 126 kb/s
Channel(s)                  : 2 channels
Channel positions           : Front: L R
Sampling rate               : 44.1 kHz
Frame rate                  : 43.066 FPS (1024 SPF)
Compression mode            : Lossy
Stream size                 : 90.7 MiB (5%)
Default                     : Yes
Alternate group             : 1



[/SPOILER]



Descomprimir con winrar, 7zip o programa similar.



El Gran Pastelero: Bake Off España (2019)[T.1][HDTV 720p][Castellano][6/-][VS]



Bake Off España es un programa de televisión gastronómico que busca al mejor pastelero o pastelera amateur de España. Se trata de la adaptación española del programa de la BBC, The Great British Bake Off y se emite en Cuatro desde el 6 de marzo de 2019.?



El Gran Pastelero: Bake Off España (2019)[T.1][HDTV 720p][Castellano][6/-][VS]


El Gran Pastelero: Bake Off España (2019)[T.1][HDTV 720p][Castellano][6/-][VS]



Descarga todo de un servidor FREE + 1 parte NO FREE

Para descargar tener abierto JDownloader v2, Mipony o programa similar


El Gran Pastelero: Bake Off España (2019)[T.1][HDTV 720p][Castellano][6/-][VS]

El Gran Pastelero: Bake Off España (2019)[T.1][HDTV 720p][Castellano][6/-][VS]

El Gran Pastelero: Bake Off España (2019)[T.1][HDTV 720p][Castellano][6/-][VS]

El Gran Pastelero: Bake Off España (2019)[T.1][HDTV 720p][Castellano][6/-][VS]
El Gran Pastelero: Bake Off España (2019)[T.1][HDTV 720p][Castellano][6/-][VS]
El Gran Pastelero: Bake Off España (2019)[T.1][HDTV 720p][Castellano][6/-][VS]
El Gran Pastelero: Bake Off España (2019)[T.1][HDTV 720p][Castellano][6/-][VS]



1x01:

https://lupaste.com/?v=32101

1x02:

https://lupaste.com/?v=32102

1x03:

https://lupaste.com/?v=32103

1x04:

https://lupaste.com/?v=32154

1x05:

https://lupaste.com/?v=32308

1x06:

https://lupaste.com/?v=32379



Visita mi perfil para ver todos mis aportes


El Gran Pastelero: Bake Off España (2019)[T.1][HDTV 720p][Castellano][6/-][VS]




CARGANDO...


Estimado visitante, usted esta en el sitio como usuario no registrado.
Le recomendamosRegistrarse o entrar en el sitio con sus datos.
<
parrix

4 Abril 2019 15:07

Información del Comentario
  • Grupo: Colaborador
  • ICQ:
  • Registrado el: 1.03.2019
  • 20 Comentarios
  • 62 Publicacioness
Añadido el programa 4, cualquier cosa la comentais
<
parrix

10 Abril 2019 22:38

Información del Comentario
  • Grupo: Colaborador
  • ICQ:
  • Registrado el: 1.03.2019
  • 20 Comentarios
  • 62 Publicacioness
Añadido el capitulo 5, saludos!
<
parrix

15 Abril 2019 22:43

Información del Comentario
  • Grupo: Colaborador
  • ICQ:
  • Registrado el: 1.03.2019
  • 20 Comentarios
  • 62 Publicacioness
Añadido programa 6, a disfrutar!
Información
Usuarios que están en este grupo no pueden dejar comentarios en la página