» » » El Misterio de la Guía de Ferrocarriles (2018)[Miniserie][MicroHD 720p][Castellano][3/3][800MB][VS]
Información de la Publicación
  • Visitas: 641
  • Autor: parrix
  • Fecha: 7-04-2019, 08:22
7-04-2019, 08:22

El Misterio de la Guía de Ferrocarriles (2018)[Miniserie][MicroHD 720p][Castellano][3/3][800MB][VS]

Categoria: Series TV » Mini Series



El Misterio de la Guía de Ferrocarriles (2018)[Miniserie][MicroHD 720p][Castellano][3/3][800MB][VS]


El Misterio de la Guía de Ferrocarriles (2018)[Miniserie][MicroHD 720p][Castellano][3/3][800MB][VS]



Título original: The ABC Murders
Año: 2018
Duración: 60 min.
País : Reino Unido
Director: Alex Gabassi
Guión: Sarah Phelps (Personaje: Agatha Christie)
Música: Zach Stretten-Carlson
Fotografía: Joel Devlin
Reparto: John Malkovich, Tara Fitzgerald, Rupert Grint, Ian Pirie, Andrew Buchan, Eamon Farren, Bronwyn James, Freya Mavor
Productora: Mammoth Screen. Distribuida por Amazon Video / Endeavor Content
Género: Serie de TV. Intriga. Thriller | Miniserie de TV. Crimen. Años 30. Asesinos en serie





Calidad: MicroHD 720p
Formato: MKV
Resolución: 1280x720p
Video: AVC x264
Audio: Castellano AC3 48000 Hz
Tamaño: 800 MB
Subtítulos: No



MediaInfo:



General
Unique ID                                : 308011130108616798538756552086842269232 (0xE7B8C92EA66BF2F223A9C396DD385E30)
Complete name                            : El.misteri0.guia.ferr0carriles.1x01.M72O.mkv
Format                                   : Matroska
Format version                           : Version 4
File size                                : 797 MiB
Duration                                 : 55 min 54 s
Overall bit rate mode                    : Variable
Overall bit rate                         : 1 993 kb/s
Movie name                               : El.misteri0.guia.ferr0carriles.1x01.M72O.mkv
Encoded date                             : UTC 2019-03-16 09:02:52
Writing application                      : mkvmerge v31.0.0 ('Dolores In A Shoestand') 64-bit
Writing library                          : libebml v1.3.6 + libmatroska v1.4.9

Video
ID                                       : 1
Format                                   : AVC
Format/Info                              : Advanced Video Codec
Format profile                           : High@L4.1
Format settings                          : CABAC / 4 Ref Frames
Format settings, CABAC                   : Yes
Format settings, ReFrames                : 4 frames
Codec ID                                 : V_MPEG4/ISO/AVC
Duration                                 : 55 min 54 s
Bit rate mode                            : Variable
Bit rate                                 : 1 800 kb/s
Maximum bit rate                         : 50.0 Mb/s
Width                                    : 1 280 pixels
Height                                   : 640 pixels
Display aspect ratio                     : 2.000
Frame rate mode                          : Constant
Frame rate                               : 25.000 FPS
Color space                              : YUV
Chroma subsampling                       : 4:2:0
Bit depth                                : 8 bits
Scan type                                : Progressive
Bits/(Pixel*Frame)                       : 0.088
Stream size                              : 719 MiB (90%)
Title                                    : El.misteri0.guia.ferr0carriles.1x01.M72O.mkv
Writing library                          : x264 core 157 r2935 545de2f
Encoding settings                        : cabac=1 / ref=4 / deblock=1:1:1 / analyse=0x3:0x133 / me=hex / subme=7 / psy=1 / psy_rd=0.40:0.00 / mixed_ref=1 / me_range=16 / chroma_me=1 / trellis=1 / 8x8dct=1 / cqm=0 / deadzone=21,11 / fast_pskip=0 / chroma_qp_offset=-2 / threads=18 / lookahead_threads=3 / sliced_threads=0 / nr=0 / decimate=1 / interlaced=0 / bluray_compat=0 / constrained_intra=0 / bframes=3 / b_pyramid=2 / b_adapt=1 / b_bias=0 / direct=3 / weightb=1 / open_gop=0 / weightp=2 / keyint=250 / keyint_min=25 / scenecut=40 / intra_refresh=0 / rc_lookahead=50 / rc=2pass / mbtree=1 / bitrate=1800 / ratetol=1.0 / qcomp=0.60 / qpmin=0 / qpmax=69 / qpstep=4 / cplxblur=20.0 / qblur=0.5 / vbv_maxrate=50000 / vbv_bufsize=62500 / nal_hrd=vbr / filler=0 / ip_ratio=1.40 / aq=1:1.00
Language                                 : English
Default                                  : Yes
Forced                                   : No
Color range                              : Limited
Color primaries                          : BT.709
Transfer characteristics                 : BT.709
Matrix coefficients                      : BT.709

Audio
ID                                       : 2
Format                                   : AC-3
Format/Info                              : Audio Coding 3
Commercial name                          : Dolby Digital
Codec ID                                 : A_AC3
Duration                                 : 55 min 54 s
Bit rate mode                            : Constant
Bit rate                                 : 192 kb/s
Channel(s)                               : 2 channels
Channel layout                           : L R
Sampling rate                            : 48.0 kHz
Frame rate                               : 31.250 FPS (1536 SPF)
Bit depth                                : 16 bits
Compression mode                         : Lossy
Stream size                              : 76.8 MiB (10%)
Title                                    : El.misteri0.guia.ferr0carriles.1x01.M72O.mkv
Language                                 : Spanish
Service kind                             : Complete Main
Default                                  : Yes
Forced                                   : No





Descomprimir con winrar, 7zip o programa similar.



El Misterio de la Guía de Ferrocarriles (2018)[Miniserie][MicroHD 720p][Castellano][3/3][800MB][VS]



Corre el año 1930. Es una época en la que Inglaterra está dividida y en la que el odio y la sospecha hacia los demás se han convertido en norma. Dentro de esta compleja situación político-social, el investigador Poirot se enfrenta al asesino en serie bautizado como "El asesino ABC". Su nombre viene dado por la única pista que deja tras de sí a medida que crece el número de cadáveres que deja a su paso: la guía "ABC" del servicio ferroviario del país. La investigación de Poirot avanza lentamente a causa de la inteligencia un enemigo capaz de poner en tela de juicio no sólo los valores morales de uno de los policías más importantes del país, sino también su pasado, su autoridad e incluso su propia identidad.



El Misterio de la Guía de Ferrocarriles (2018)[Miniserie][MicroHD 720p][Castellano][3/3][800MB][VS]


El Misterio de la Guía de Ferrocarriles (2018)[Miniserie][MicroHD 720p][Castellano][3/3][800MB][VS]


Descarga todo de un servidor FREE + 1 parte NO FREE

Para descargar tener abierto JDownloader v2, Mipony o programa similar


El Misterio de la Guía de Ferrocarriles (2018)[Miniserie][MicroHD 720p][Castellano][3/3][800MB][VS]

El Misterio de la Guía de Ferrocarriles (2018)[Miniserie][MicroHD 720p][Castellano][3/3][800MB][VS]

El Misterio de la Guía de Ferrocarriles (2018)[Miniserie][MicroHD 720p][Castellano][3/3][800MB][VS]

El Misterio de la Guía de Ferrocarriles (2018)[Miniserie][MicroHD 720p][Castellano][3/3][800MB][VS]
El Misterio de la Guía de Ferrocarriles (2018)[Miniserie][MicroHD 720p][Castellano][3/3][800MB][VS]
El Misterio de la Guía de Ferrocarriles (2018)[Miniserie][MicroHD 720p][Castellano][3/3][800MB][VS]
El Misterio de la Guía de Ferrocarriles (2018)[Miniserie][MicroHD 720p][Castellano][3/3][800MB][VS]


https://lupaste.com/?v=32166

Visita mi perfil para ver todos mis aportes


El Misterio de la Guía de Ferrocarriles (2018)[Miniserie][MicroHD 720p][Castellano][3/3][800MB][VS]




CARGANDO...


Estimado visitante, usted esta en el sitio como usuario no registrado.
Le recomendamosRegistrarse o entrar en el sitio con sus datos.
Información
Usuarios que están en este grupo no pueden dejar comentarios en la página