» » Juego de Tronos (2019)[T.8][m1080p][Dual Castellano/Eng AC3 5.1+Subs][1.5GB][1/6][VS]
Información de la Publicación
  • Visitas: 824
  • Autor: parrix
  • Fecha: 17-04-2019, 22:16
17-04-2019, 22:16

Juego de Tronos (2019)[T.8][m1080p][Dual Castellano/Eng AC3 5.1+Subs][1.5GB][1/6][VS]

Categoria: Series TV, En Curso



Juego de Tronos (2019)[T.8][m1080p][Dual Castellano/Eng AC3 5.1+Subs][1.5GB][1/6][VS]


Juego de Tronos (2019)[T.8][m1080p][Dual Castellano/Eng AC3 5.1+Subs][1.5GB][1/6][VS]



Pais / Año: EE.UU. / 2011-Actual.
· Título Original: Game Of Thrones
· Guión: David Benioff, D.B. Weiss, Bryan Cogman, Jane Espenson, George R. R. Martin (Autor de las novelas).
· Dirección: David Benioff, D.B. Weiss, Timothy Van Patten, Brian Kirk, Daniel Minahan, Alan Taylor, Neil Marshall, David Benioff,
Alex Graves, Michelle MacLaren, David Nutter, Alik Sakharov, Michael Slovis, Mark Mylod, Jeremy Podeswa, Miguel Sapochnik, Jack Bender.
· Producción: Home Box Office (HBO) / Management 360.
· Género: Aventuras / Drama / Fantástico / Acción / Intriga.
· Temporada: 8ª
· Capítulos: 6
· Duración: 1 h. aprox.
· Reparto: Lena Headey, Peter Dinklage, Maisie Williams, Emilia Clarke, Kit Harington, Nikolaj Coster-Waldau, Sophie Turner, Michelle Fairley, Sean Bean, Charles Dance, Jack Gleeson, Rory McCann, Isaac Hempstead Wright, Mark Addy, Alfie Allen, Iain Glen, Aidan Gillen, Conleth Hill, Richard Madden, Stephen Dillane, Carice van Houten, Natalie Dormer, John Bradley, Jerome Flynn, Gwendoline Christie, Sibel Kekilli, Jason Momoa, Liam Cunningham, Michael McElhatton, Diana Rigg, Finn Jones, Ian McElhinney, Oona Chaplin, Natalia Tena, Kristian Nairn, Rose Leslie, Pedro Pascal, Gemma Whelan, Kristofer Hivju, James Cosmo, Hannah Murray, Iwan Rheon, Ellie Kendrick, Peter Vaughan, Gethin Anthony, Tom Wlaschiha, Harry Lloyd, Donald Sumpter, Kate Dickie, Clive Russell, Tobias Menzies, Ciarán Hinds, Julian Glover, Mark Stanley, Esmé Bianco, Joe Dempsie, Michiel Huisman, Nathalie Emmanuel, Hafthor Julius Bjornsson, Indira Varma, Thomas Brodie-Sangster, Miltos Yerolemou, Elyes Gabel, Rosabell Laurenti Sellers, Ian McShane, Rosie Mac, Pilou Asbæk, Ed Skrein, Joseph Naufahu, Keisha Castle-Hughes, Jessica Henwick, Jim Broadbent, Faye Marsay, Nonso Anozie, Ed Sheeran, Thomas Turgoose.





Calidad: MicroHD 1080p
Formato: MKV
Resolución: 1920x1080p
Video: AVC H264
Audio: Castellano/English AC3 5.1 Dolby Surround
Tamaño: 1,5 GB Aprox.
Subtítulos: Forzados, Español, English





Descomprimir con winrar, 7zip o programa similar



MediaInfo:



General
Unique ID                                : 160988708393655329912436494454245570512 (0x791D4C23BD90905508DDE2A4429C37D0)
Complete name                            : Juego.de.Tr0n0s.8x01.m1O8O.mkv
Format                                   : Matroska
Format version                           : Version 4
File size                                : 1.44 GiB
Duration                                 : 50 min 55 s
Overall bit rate mode                    : Variable
Overall bit rate                         : 4 062 kb/s
Movie name                               : Juego.de.Tr0n0s.8x01.m1O8O.mkv
Encoded date                             : UTC 2019-04-15 01:20:48
Writing application                      : mkvmerge v30.0.0 ('Interstellar') 64-bit
Writing library                          : libebml v1.3.6 + libmatroska v1.4.9

Video
ID                                       : 1
Format                                   : AVC
Format/Info                              : Advanced Video Codec
Format profile                           : High@L4
Format settings                          : CABAC / 4 Ref Frames
Format settings, CABAC                   : Yes
Format settings, ReFrames                : 4 frames
Codec ID                                 : V_MPEG4/ISO/AVC
Duration                                 : 50 min 55 s
Bit rate mode                            : Variable
Bit rate                                 : 3 292 kb/s
Maximum bit rate                         : 5 100 kb/s
Width                                    : 1 920 pixels
Height                                   : 1 080 pixels
Display aspect ratio                     : 16:9
Frame rate mode                          : Constant
Frame rate                               : 25.000 FPS
Color space                              : YUV
Chroma subsampling                       : 4:2:0
Bit depth                                : 8 bits
Scan type                                : Progressive
Bits/(Pixel*Frame)                       : 0.063
Stream size                              : 1.17 GiB (81%)
Title                                    : Juego.de.Tr0n0s.8x01.m1O8O.mkv
Language                                 : English
Default                                  : Yes
Forced                                   : No

Audio #1
ID                                       : 2
Format                                   : AC-3
Format/Info                              : Audio Coding 3
Commercial name                          : Dolby Digital
Codec ID                                 : A_AC3
Duration                                 : 50 min 55 s
Bit rate mode                            : Constant
Bit rate                                 : 384 kb/s
Channel(s)                               : 6 channels
Channel layout                           : L R C LFE Ls Rs
Sampling rate                            : 48.0 kHz
Frame rate                               : 31.250 FPS (1536 SPF)
Bit depth                                : 16 bits
Compression mode                         : Lossy
Stream size                              : 140 MiB (9%)
Title                                    : Juego.de.Tr0n0s.8x01.m1O8O.mkv
Language                                 : Spanish
Service kind                             : Complete Main
Default                                  : Yes
Forced                                   : No

Audio #2
ID                                       : 3
Format                                   : AC-3
Format/Info                              : Audio Coding 3
Commercial name                          : Dolby Digital
Codec ID                                 : A_AC3
Duration                                 : 50 min 55 s
Bit rate mode                            : Constant
Bit rate                                 : 384 kb/s
Channel(s)                               : 6 channels
Channel layout                           : L R C LFE Ls Rs
Sampling rate                            : 48.0 kHz
Frame rate                               : 31.250 FPS (1536 SPF)
Bit depth                                : 16 bits
Compression mode                         : Lossy
Stream size                              : 140 MiB (9%)
Title                                    : Juego.de.Tr0n0s.8x01.m1O8O.mkv
Language                                 : English
Service kind                             : Complete Main
Default                                  : No
Forced                                   : No

Text #1
ID                                       : 4
Format                                   : UTF-8
Codec ID                                 : S_TEXT/UTF8
Codec ID/Info                            : UTF-8 Plain Text
Duration                                 : 44 min 59 s
Bit rate                                 : 43 b/s
Count of elements                        : 449
Stream size                              : 14.5 KiB (0%)
Title                                    : Juego.de.Tr0n0s.8x01.m1O8O.mkv
Language                                 : Spanish
Default                                  : No
Forced                                   : No

Text #2
ID                                       : 5
Format                                   : UTF-8
Codec ID                                 : S_TEXT/UTF8
Codec ID/Info                            : UTF-8 Plain Text
Duration                                 : 44 min 30 s
Bit rate                                 : 43 b/s
Count of elements                        : 445
Stream size                              : 14.0 KiB (0%)
Title                                    : Juego.de.Tr0n0s.8x01.m1O8O.mkv
Language                                 : English
Default                                  : No
Forced                                   : No



Juego de Tronos (2019)[T.8][m1080p][Dual Castellano/Eng AC3 5.1+Subs][1.5GB][1/6][VS]



Temporada final del mayor fenómeno televisivo de los últimos años. Después de estrenar la serie en España por primera vez hace ocho años, ahora también le decimos adiós. Seis episodios para poner cierre a la épica serie basada en la saga literaria "Canción de Hielo y Fuego" de George R. R. Martin.

El invierno ha llegado. Los caminantes blancos liderados por el Rey de la Noche invaden Poniente y sólo hay dos bandos posibles: los vivos y los muertos. Cada batalla. Cada traición. Cada riesgo. Cada lucha. Cada sacrificio. Cada muerte. Todo por el Trono.



Juego de Tronos (2019)[T.8][m1080p][Dual Castellano/Eng AC3 5.1+Subs][1.5GB][1/6][VS]


Juego de Tronos (2019)[T.8][m1080p][Dual Castellano/Eng AC3 5.1+Subs][1.5GB][1/6][VS]


Se recomienda descargar con JDownloader v2, Mipony o programa similar

Juego de Tronos (2019)[T.8][m1080p][Dual Castellano/Eng AC3 5.1+Subs][1.5GB][1/6][VS]

Descarga todo de un servidor FREE + 1 parte NO FREE

Juego de Tronos (2019)[T.8][m1080p][Dual Castellano/Eng AC3 5.1+Subs][1.5GB][1/6][VS]

Juego de Tronos (2019)[T.8][m1080p][Dual Castellano/Eng AC3 5.1+Subs][1.5GB][1/6][VS]
Juego de Tronos (2019)[T.8][m1080p][Dual Castellano/Eng AC3 5.1+Subs][1.5GB][1/6][VS]
Juego de Tronos (2019)[T.8][m1080p][Dual Castellano/Eng AC3 5.1+Subs][1.5GB][1/6][VS]
Juego de Tronos (2019)[T.8][m1080p][Dual Castellano/Eng AC3 5.1+Subs][1.5GB][1/6][VS]

Juego de Tronos (2019)[T.8][m1080p][Dual Castellano/Eng AC3 5.1+Subs][1.5GB][1/6][VS]


8x01:

https://lupaste.com/?v=32396


Visita mi perfil para ver todos mis aportes


Juego de Tronos (2019)[T.8][m1080p][Dual Castellano/Eng AC3 5.1+Subs][1.5GB][1/6][VS]




CARGANDO...


Estimado visitante, usted esta en el sitio como usuario no registrado.
Le recomendamosRegistrarse o entrar en el sitio con sus datos.
<
Albertope

14 Mayo 2019 23:33

Información del Comentario
  • Grupo: Usuario
  • ICQ:
  • Registrado el: 14.05.2019
  • 1 Comentarios
  • 0 Publicaciones
Poned esto para ver ONLINE y en GRAN CALIDAD YAAAAAAAAAAAAAAAAAAAAAAAAAAA
Información
Usuarios que están en este grupo no pueden dejar comentarios en la página